#TITLE:Fireworks;
#SUBTITLE:;
#ARTIST:Koyote;
#TITLETRANSLIT:;
#SUBTITLETRANSLIT:;
#ARTISTTRANSLIT:Koyote;
#CREDIT:;
#BANNER:Fireworks-bn.png;
#BACKGROUND:Fireworks-bg.png;
#LYRICSPATH:;
#CDTITLE:pm4cd.png;
#MUSIC:Fireworks.mp3;
#OFFSET:0.000;
#SAMPLESTART:69.950;
#SAMPLELENGTH:15.000;
#SELECTABLE:YES;
#BPMS:0.000=142.020;
#STOPS:;
#BGCHANGES:;
// cache tags:
#FIRSTBEAT:0.750;
#LASTBEAT:541.750;
#SONGFILENAME:Songs/SDO pack 3/Fireworks/Fireworks.sm;
#HASMUSIC:1;
#HASBANNER:1;
#MUSICLENGTH:233.412;
// end cache tags

//---------------dance-single - ----------------
#NOTES:
     dance-single:
     :
     Hard:
     16:
     1.000,1.000,1.000,0.167,1.000,1284.000,591.000,39.000,0.000,233.000:
0000
0000
0000
1000
0100
0010
0001
1010
0000
0100
0000
0010
0000
0001
0000
1001
,
0000
0010
0000
0100
0000
1000
0000
1001
0000
0100
0000
0010
0000
0001
0000
1001
,
0000
0010
0000
0100
0000
1000
0000
1001
0000
0100
0000
0010
0000
0001
0000
1001
,
0000
0010
0000
0100
0000
1000
0000
1001
0000
0100
0000
0010
0000
0001
0000
1001
,
0000
0010
0000
0100
0000
1000
0000
1001
0000
0100
0000
0010
0000
0001
0000
1001
,
0000
0010
0000
0100
0000
1000
0000
1001
0000
0100
0000
0010
0000
0001
0000
1001
,
0000
0010
0000
0100
0000
1000
0000
1001
0000
0100
0000
0010
0000
0001
0000
1001
,
0000
0010
0000
0100
0000
1000
0000
1001
0000
0100
0000
0010
0000
0001
0000
1001
,
0000
0010
0000
0100
0000
1000
0000
1010
0000
0100
0000
0101
0000
0010
0000
1100
,
0000
0010
0000
0011
0000
0100
0000
1001
0000
0100
0000
0110
0000
0001
0000
1010
,
0000
0100
0000
0011
0000
1000
0000
1010
0000
0010
0000
1100
0000
0001
0000
0101
,
0000
0100
0000
1010
0000
0100
0000
1000
0100
0010
0001
0010
0100
1000
0100
0010
,
0001
0010
0100
1000
0100
0010
0001
1110
0000
0010
0000
0101
0000
0100
0000
1010
,
0000
0010
0000
0101
0000
0010
0000
1011
0000
0100
0000
1100
0000
0010
0000
0101
,
0000
0010
0000
1010
0000
0001
0000
1101
0000
0010
0000
0110
0000
1000
0000
1011
,
0000
0010
0000
1001
0000
0100
0000
1011
0000
0100
0000
0111
0000
0010
0000
1110
,
1110
1110
1110
1110
1110
1110
1110
0011
0000
1100
0000
0101
0000
1010
0000
0110
,
0000
1010
0000
0101
0000
0011
0000
1100
0000
0110
0000
1001
0000
0101
0000
1010
,
0000
1100
0000
0011
0000
1100
0000
0110
0000
0101
0000
1010
0000
0101
0000
1010
,
0000
0110
0000
1100
0000
0011
0000
0101
0000
1010
0000
1100
0000
0110
0000
0011
,
0000
1010
0000
1001
0000
0110
0000
0101
0000
0110
0000
1010
0000
1100
0000
0011
,
0000
1010
0000
0110
0000
1100
0000
0011
0000
0101
0000
1010
0000
1100
0000
0011
,
0000
0101
0000
1010
0000
0110
0000
1100
0000
0011
0000
0110
0000
1010
0000
0110
,
0000
1010
0000
0101
0000
0011
0000
1010
0000
1100
0000
1010
0000
0101
0000
0110
,
0000
1001
0000
1100
0000
0010
0000
0001
0000
0010
0000
1100
0000
0010
0000
0001
,
0000
0100
0000
1010
0000
0001
0000
0100
0000
0010
0000
0101
0000
1000
0000
0010
,
0000
0001
0000
1010
0000
0100
0000
0001
0000
0010
0000
1100
0000
0001
0000
1000
,
0000
0010
0000
0101
0000
0010
0000
1000
0000
0010
0000
0101
0000
0010
0000
1000
,
0000
0100
0000
0011
0000
1000
0000
0001
0000
0100
0000
1010
0000
0001
0000
0010
,
0000
0100
0000
1010
0000
0001
0000
1000
0000
0100
0000
0011
0000
0100
0000
1000
,
0000
0001
0000
0110
0000
0010
0000
0001
0000
0100
0000
0011
0000
1000
0000
0100
,
0000
0010
0000
0101
0000
0010
0000
0001
0010
1000
0100
0001
0010
1000
0100
0001
,
0010
1000
0100
0001
0010
1000
0100
0011
0000
0010
0010
1110
0000
0100
0100
1100
,
0000
1000
1000
1011
0000
0001
0001
0011
0000
0010
0010
1110
0000
0100
0100
1100
,
0000
1000
1000
1011
0000
1000
1000
1100
0000
0100
0100
0111
0000
0010
0010
0011
,
0000
0001
0001
1101
0000
1000
1000
1100
0000
0100
0100
0111
0000
0010
0010
0011
,
0000
0001
0001
1101
0000
0001
0001
0011
0000
0010
0010
1110
0000
0100
0100
1100
,
0000
1000
1000
1011
0000
0001
0001
0011
0000
0010
0010
1110
0000
0100
0100
1100
,
0000
1000
1000
1011
0000
1000
1000
1100
0000
0100
0100
0111
0000
0010
0010
0011
,
0000
0001
0001
1101
0000
1000
1000
1100
0000
0100
0100
0111
0000
0010
0010
0011
,
0000
0001
0001
1101
0000
0010
0000
1010
0000
0100
0000
0101
0000
0010
0000
0111
,
0111
0111
0111
0111
0111
0111
0111
1000
0100
0010
0000
1001
0010
0100
0000
1000
,
0100
0010
0000
1001
0010
0100
0000
1000
0100
0010
0000
1001
0010
0100
0000
1000
,
0100
0010
0000
1001
0010
0100
0000
0100
0010
0001
0000
0011
0100
1000
0000
0100
,
0010
0001
0000
0011
0100
1000
0000
0100
0010
0001
0000
0011
0100
1000
0000
0100
,
0010
0001
0000
0011
0100
1000
0000
0010
0001
1000
0000
0110
1000
0001
0000
0010
,
0001
1000
0000
0110
1000
0001
0000
0010
0001
1000
0000
0110
1000
0001
0000
0010
,
0001
1000
0000
0110
1000
0001
0000
0001
0010
0100
0000
1001
0100
0010
0000
0001
,
0010
0100
0000
1001
0100
0010
0000
0001
0010
0100
0000
1001
0100
0010
0000
0001
,
0010
0100
0000
1001
0100
0010
0000
0011
0000
1100
0000
0111
0000
1010
0000
0110
,
0000
1010
0000
1101
0000
0011
0000
1100
0000
0110
0000
1011
0000
0101
0000
1010
,
0000
1100
0000
1011
0000
1100
0000
0110
0000
0101
0000
1110
0000
0110
0000
1101
,
0000
0011
0000
0101
0000
1010
0000
1101
0000
0110
0000
0011
0000
1010
0000
1101
,
0000
0110
0000
1010
0000
0101
0000
1110
0000
1010
0000
1100
0000
0011
0000
1011
,
0000
0110
0000
1100
0000
0011
0000
0111
0000
1010
0000
1100
0000
0011
0000
1101
,
0000
1010
0000
0110
0000
0011
0000
1011
0000
0110
0000
1010
0000
0101
0000
1011
,
0000
1100
0000
0110
0000
0011
0000
1101
0000
1100
0000
0111
0000
1100
0000
1011
,
0000
0011
0000
0111
0000
1100
0000
1111
0000
2000
0000
0011
0000
3200
0000
1010
,
0000
0320
0000
1001
0000
0032
0000
0110
0000
0023
0000
0101
0000
0230
0000
1001
,
0000
2300
0000
0101
0000
0010
0000
0100
3000
0201
0000
1001
0000
2310
0000
0101
,
0000
3210
0000
1010
0000
0321
0000
1001
0000
1230
0000
0011
0000
0312
0000
0110
,
0000
1023
0000
1100
0000
0231
0000
1001
0000
2310
0000
0110
0000
3201
0000
0011
,
0000
1320
0000
1100
0000
2031
0000
0101
0000
3120
0000
1100
0000
1230
0000
1001
,
0000
0321
0000
1001
0000
1032
0000
1100
0000
0213
0000
0011
0000
2310
0000
0101
,
0000
3120
0000
1100
0000
0231
0000
1001
0000
0312
0000
0110
0000
2013
0000
0101
,
0000
3210
0000
0011
0000
1301
0000
1110
0000
0000
0000
0111
0000
0000
0000
1101
,
0000
0000
0000
1011
0000
0000
0000
1111
0000
0000
0000
0000
0000
0000
0000
0101
,
1010
0101
1010
0101
1010
0101
1010
1111
0000
0010
0000
1100
0000
0001
0000
0101
,
0000
1000
0000
1100
0000
0001
0000
0110
0000
1000
0000
1010
0000
0001
0000
0011
,
0000
1000
0000
0110
0000
0010
0000
0101
0000
0010
0000
0011
0000
0010
0000
0110
,
0000
0100
0000
1100
0000
0001
0000
0012
0000
0100
0000
1010
0000
1000
0000
1100
,
0000
0010
0000
1100
0000
0010
0000
0113
0000
1000
0000
0101
0000
0010
0000
1100
,
0000
0100
0000
0101
0000
0010
0000
1010
0000
1000
0000
0110
0000
0010
0000
0011
,
0000
0100
0000
0110
0000
0010
0000
1010
0000
0001
0000
1001
0000
0100
0000
0011
,
0000
1000
0000
1100
0000
0010
0000
1010
0001
0010
0100
0010
0100
1000
0100
0010
,
0100
0010
0001
0010
0100
0010
0100
1011
0000
0100
0000
0001
0000
0010
0000
1100
,
0000
0010
0000
0100
0000
1000
0000
0101
0000
0010
0000
0001
0000
0010
0000
1100
,
0000
0001
0000
0100
0000
0001
0000
1010
0000
0100
0000
1000
0000
0100
0000
0011
,
0000
0100
0000
0010
0000
1000
0000
0101
0000
0010
0000
0001
0000
0010
0000
1100
,
0000
0010
0000
1000
0000
0100
0000
0011
0000
0001
0000
0100
0000
0010
0000
1100
,
0000
0100
0000
0010
0000
1000
0000
0011
0000
0100
0000
1000
0000
0100
0000
1001
,
0000
0010
0000
0100
0000
0010
0000
0011
0000
1000
0000
0010
0000
0100
0000
0101
,
0000
0010
0000
0001
0000
0100
0000
0010
0001
0100
1000
0010
0001
0100
1000
0010
,
0001
0100
1000
0010
0001
0100
1000
0120
0000
0000
0000
1131
0000
0010
0000
1200
,
0000
0000
0000
1311
0000
1000
0000
0012
0000
0000
0000
1113
0000
0100
0000
2010
,
0000
0000
0000
3111
0000
0100
0000
0120
0000
0000
0000
1131
0000
0001
0000
0201
,
0000
0000
0000
1311
0000
0010
0000
0102
0000
0000
0000
1113
0000
0100
0000
2100
,
0000
0000
0000
3111
0011
0011
0011
1011
0000
0100
0000
0010
0000
0001
0000
1010
,
0000
0001
0000
0010
0000
0100
0000
0011
0000
1000
0000
0010
0000
0100
0000
0011
,
0000
1000
0000
0001
0000
0100
0000
1010
0000
0100
0000
1000
0000
0010
0000
0101
,
0000
1000
0000
0100
0000
0010
0000
0101
0000
0010
0000
1000
0000
0100
0000
0011
,
0100
0000
0010
0000
0001
0000
0010
0000
0100
0000
1000
0000
0100
0000
0010
0000
0001
0000
0010
0000
1101
0000
0000
0000
0000
0000
0000
0000
0000
0000
0000
0000
0000
1101
0000
0000
0000
0000
0000
0000
0000
0000
0000
0000
0000
1100
0000
0000
,
0011
1100
0011
1100
0011
1100
0011
1111
0000
1000
0100
0010
0000
1100
0010
0001
,
0000
1000
0100
0010
0000
1100
0010
0001
0000
1000
0100
0010
0000
1100
0010
0001
,
0000
1000
0100
0010
0000
1100
0010
0001
0000
0001
0010
0100
0000
1010
0001
0010
,
0000
0001
0010
0100
0000
1010
0001
0010
0000
0001
0010
0100
0000
1010
0001
0010
,
0000
0001
0010
0100
0000
1010
0001
0010
0000
0100
0010
0001
0000
0101
1000
0100
,
0000
0100
0010
0001
0000
0101
1000
0100
0000
0100
0010
0001
0000
0101
1000
0100
,
0000
0100
0010
0001
0000
0010
0100
1010
0000
0100
0010
0101
0000
0010
0100
1010
,
0000
0100
0010
0101
0000
0010
0100
1010
0000
0100
0010
0101
0000
0010
0100
1010
,
0000
0100
0010
0101
0000
0010
0100
1011
0000
1110
0000
1101
0000
1011
0000
0111
,
0000
1110
0000
1101
0000
1011
0000
1110
0000
0111
0000
1101
0000
1110
0000
1011
,
0000
0111
0000
1101
0000
0111
0000
1011
0000
1110
0000
1101
0000
1110
0000
0111
,
0000
1110
0000
1011
0000
1101
0000
1011
0000
1110
0000
0111
0000
1011
0000
1101
,
0000
1011
0000
1110
0000
0111
0000
1101
0000
1011
0000
1101
0000
0111
0000
1110
,
0000
0111
0000
1101
0000
1011
0000
1101
0000
1110
0000
0111
0000
1110
0000
1011
,
0000
1101
0000
1011
0000
1110
0000
1011
0000
0111
0000
1101
0000
0111
0000
1110
,
0000
1011
0000
1101
0000
1110
0000
0111
0000
1011
0000
1101
0000
1110
0000
1101
,
0000
1011
0000
1010
0000
0101
0000
0001
0010
0100
0000
1010
0100
1000
0000
0001
,
0010
0100
0000
1010
0100
1000
0000
0001
0010
0100
0000
1010
0100
1000
0000
0001
,
0010
0100
0000
1010
0100
1000
0000
1000
0100
0010
0000
0101
0010
0001
0000
1000
,
0100
0010
0000
0101
0010
0001
0000
1000
0100
0010
0000
0101
0010
0001
0000
1000
,
0100
0010
0000
0101
0010
0001
0000
0001
0010
0100
0000
1010
0100
1000
0000
0001
,
0010
0100
0000
1010
0100
1000
0000
0001
0010
0100
0000
1010
0100
1000
0000
0001
,
0010
0100
0000
1010
0100
1000
0000
1000
0100
0010
0000
0101
0010
0001
0000
1000
,
0100
0010
0000
0101
0010
0001
0000
1000
0100
0010
0000
0001
0010
0100
0000
1000
,
0100
0010
0000
0001
0010
0100
0000
1011
0000
0000
0000
0000
0000
0000
0000
1011
,
1011
1011
1011
1011
1011
1000
0100
0010
0000
1001
0010
0100
0000
1000
0100
0010
,
0000
1001
0010
0100
0000
0011
0000
1100
0000
0111
0000
1010
0000
0110
0000
1010
,
0000
1101
0000
0011
0000
0100
0010
0001
0000
0011
0100
1000
0000
0100
0010
0001
,
0000
0011
0100
1000
0000
1100
0000
0110
0000
1011
0000
0101
0000
1010
0000
1100
,
0000
1011
0000
1100
0000
0010
0001
1000
0000
0110
1000
0001
0000
0010
0001
1000
,
0000
0110
1000
0001
0000
0110
0000
0101
0000
1110
0000
0101
0000
1010
0000
0110
,
0000
1101
0000
0011
0000
0001
0010
0100
0000
1001
0100
0010
0000
0001
0010
0100
,
0000
1001
0100
0010
0000
0101
0000
1010
0000
1101
0000
0110
0000
0011
0000
1010
,
0000
1101
0000
0110
0000
1001
0000
0010
0000
0100
0000
0010
0000
0100
0000
1001
,
0000
0010
0000
0100
0000
0010
0000
1100
0000
0110
0000
0011
0000
1001
0000
1101
,
1101
1101
1101
1101
1101
1101
1101
1010
0000
0100
0000
0101
0000
0010
0000
1100
,
0000
0010
0000
0011
0000
0100
0000
1001
0000
0100
0000
0110
0000
0001
0000
1010
,
0000
0100
0000
0011
0000
1000
0000
1010
0000
0010
0000
1100
0000
0001
0000
0101
,
0000
0100
0000
1010
0000
0100
0000
1000
0100
0010
0001
0010
0100
1000
0100
0010
,
0001
0010
0100
1000
0100
0010
0001
1110
0000
0010
0000
0101
0000
0100
0000
1010
,
0000
0010
0000
0101
0000
0010
0000
1011
0000
0100
0000
1100
0000
0010
0000
0101
,
0000
0010
0000
1010
0000
0001
0000
1101
0000
0010
0000
0110
0000
1000
0000
1011
,
0000
0010
0000
1001
0000
0100
0000
1011
0000
0100
0000
0111
0000
0100
0000
1111
,
1111
1111
1111
1111
1111
1111
1111
1111
0000
0000
0000
0000
0000
0000
0000
0000
;
